搜索 社区服务 统计排行 帮助
  • 1574阅读
  • 8回复

[请教] 这是用什么程式转的 才会产生这种讯息?

楼层直达
级别: 新手上路
注册时间:
2010-07-07
在线时间:
8小时
发帖:
39
Imported with GPAC 0.4.X-DEV ........

请问常常看到视频里 有这种讯息

请教这是用什么程式转的 才会产生这种讯息? 有人知道吗?
级别: 新手上路
注册时间:
2010-06-23
在线时间:
0小时
发帖:
154
只看该作者 1楼 发表于: 2010-11-23
megui 出来的
级别: 新手上路
注册时间:
2005-06-30
在线时间:
1小时
发帖:
529
只看该作者 2楼 发表于: 2010-11-23
MP4Box或者使用GPAC的项目如x264(非L-SMASH的mp4输出)等等。

级别: 风云使者
注册时间:
2004-01-20
在线时间:
633小时
发帖:
549
只看该作者 3楼 发表于: 2010-11-23
搭车问一个
这些信息是怎么出来的?(最后三行)

Video
ID : 1
Format : AVC
Format/Info : Advanced Video Codec
Format profile : High@L5.1
Format settings, CABAC : Yes
Format settings, ReFrames: 16 frames
Muxing mode : Header stripping
Codec ID : V_MPEG4/ISO/AVC
Duration : 24mn 9s
Bit rate mode: Variable
Maximum bit rate : 3 000 Kbps
Width: 640 pixels
Height : 480 pixels
Display aspect ratio : 4:3
Frame rate : 23.976 fps
Standard : NTSC
Color space : YUV
Chroma subsampling : 4:2:0
Bit depth: 8 bits
Scan type: Progressive
Language : Japanese
Color primaries : BT.601-6 525, BT.1358 525, BT.1700 NTSC, SMPTE 170M
Transfer characteristics : BT.601-6 525, BT.601-6 625, BT.1358 525, BT.1358 625, BT.1700 NTSC, SMPTE 170M
Matrix coefficients : BT.601-6 525, BT.1358 525, BT.1700 NTSC, SMPTE 170M

视频是msnzs的美少女战士第一部

求资源,欢迎PM告知:
Xbox360 Clannad OP原版(WMV格式)
PS3 圣恩传说F / Tales of Graces F OP原版(BIK格式)


CLANNAD游戏OP/ED + TOMOYO after OP 无二次Credits内嵌字幕清晰版
BiliBili站点     AcFun站点

--- Direct264 自编译版 ---

碧之轨迹Nightmare VS风之剑圣 第1战(均无水印):6cn(六间房)   56(我乐)
BGM: Inevitable Struggle (Super Arrange Ver.)

Rockman 9 Rock Medley
级别: 新手上路
注册时间:
2010-06-23
在线时间:
0小时
发帖:
154
只看该作者 4楼 发表于: 2010-11-23
color primary 和 color transfer出处在x264 help file 那里

--colorprim Specify color primaries ["undef"]
- undef, bt709, bt470m, bt470bg
smpte170m, smpte240m, film
--transfer Specify transfer characteristics ["undef"]
- undef, bt709, bt470m, bt470bg, linear,
log100, log316, smpte170m, smpte240m
--colormatrix Specify color matrix setting ["undef"]
- undef, bt709, fcc, bt470bg
smpte170m, smpte240m, GBR, YCgCo
这是roozhou 大版本的

其实 bd 转sd 的话 color prime 应该是 bt709 colormatrix 应该也是 709 只有 transfer 才应该是 smpte170m
级别: 侠客
注册时间:
2009-02-15
在线时间:
16小时
发帖:
221
只看该作者 5楼 发表于: 2010-11-23
HD转SD还是bt709tobt601吧……这个最可靠……

级别: 新手上路
注册时间:
2010-07-07
在线时间:
8小时
发帖:
39
只看该作者 6楼 发表于: 2010-11-23
如果是用megui转出来和内建的MP4Box合并

也没有这个讯息吧 Imported with GPAC 0.4.X-DEV ........

刚刚有试一下
级别: 新手上路
注册时间:
2010-06-23
在线时间:
0小时
发帖:
154
只看该作者 7楼 发表于: 2010-11-23
psp版本的话音该有的

Format : MPEG-4
Format profile : Sony PSP
Codec ID : MSNV
File size : 113 MiB
Duration : 24mn 36s
Overall bit rate : 643 Kbps
Encoded date : UTC 2010-05-27 08:27:38
Tagged date : UTC 2010-05-27 08:27:38
Video #1
ID : 1
Format : AVC
Format/Info : Advanced Video Codec
Format profile : Main@L3.0
Format settings, CABAC : Yes
Format settings, ReFrames : 3 frames
Codec ID : avc1
Codec ID/Info : Advanced Video Coding
Duration : 24mn 35s
Bit rate mode : Variable
Bit rate : 543 Kbps
Maximum bit rate : 2 316 Kbps
Width : 640 pixels
Height : 480 pixels
Display aspect ratio : 4:3
Original display aspect ratio : 4:3
Frame rate mode : Constant
Frame rate : 23.976 fps
Color space : YUV
Chroma subsampling : 4:2:0
Bit depth : 8 bits
Scan type : Progressive
Bits/(Pixel*Frame) : 0.074
Stream size : 95.6 MiB (84%)
Title : Imported with GPAC 0.4.6-DEV (build 1)
Writing library : x264 core 80 r1376M 3feaec2
Encoded date : UTC 2010-05-27 08:27:38
Tagged date : UTC 2010-05-27 08:27:44
Audio #2
ID : 2
Format : AAC
Format/Info : Advanced Audio Codec
Format version : Version 4
Format profile : LC
Format settings, SBR : No
Codec ID : 40
Duration : 24mn 36s
Bit rate mode : Variable
Bit rate : 96.0 Kbps
Maximum bit rate : 136 Kbps
Channel(s) : 2 channels
Channel positions : Front: L R
Sampling rate : 48.0 KHz
Stream size : 16.9 MiB (15%)
Encoded date : UTC 2010-05-27 08:27:44
Tagged date : UTC 2010-05-27 08:27:44
级别: 精灵王
注册时间:
2008-04-08
在线时间:
44小时
发帖:
2855
只看该作者 8楼 发表于: 2010-11-23
所有这些问题都应该去问MediaInfo的作者。另外这些和MeGUI毛关系没有,MeGUI什么也不会写的。

像Color primaries这种信息,源文件里面只有一个字节,MediaInfo里显示的信息都是作者自己加入的解释。
快速回复

限150 字节
上一个 下一个